Curvature(2018)Mp-4 Dvd Rip{daScubaDude]

DOWNLOAD ( MAGNET LINK ) DOWNLOAD Watch Online

Posted on May 16, 2018 in Movies » Misc

Size: 911.2 MB , Seeds: 1 , Peers: 4 ( Updated May 16, 2018 - Refresh )

* Download via Magnet Link , * To download files you need a Bittorrent Client , * How to download torrents from Bit Torrent Scene?

Scrape History ( seeds + peers )

Internal Files

Curvature(2018)Mp-4 Dvd Rip{daScubaDude]
screenshot779.jpg   24.5 KB

screenshot777.jpg   34.0 KB

screenshot778.jpg   36.2 KB

screenshot780.jpg   38.2 KB

Curvature_Title1.mp4   911.1 MB

Hash Code

eff7879b6560174ed95a72f6ce68638cdb76ca9d

Description

SCREENSHOT
[youtube]oaE4N4lHNWs[/youtube]

Curvature (2017)

1h 30min | Mystery, Sci-Fi, Thriller | 23 February 2018 (USA)

General

Complete name : Curvature\Curvature_Title1.mp4

Format : MPEG-4

Format profile : Base Media

Codec ID : isom (isom/iso2/avc1/mp41)

File size : 911 MiB

Duration : 1 h 28 min

Overall bit rate : 1 436 kb/s

Movie name : Curvature

Genre : Thriller

Writing application : Lavf54.6.100


Video

ID : 1

Format : AVC

Format/Info : Advanced Video Codec

Format profile : [email protected]
Format settings : 6 Ref Frames

Format settings, CABAC : No

Format settings, RefFrames : 6 frames

Codec ID : avc1

Codec ID/Info : Advanced Video Coding

Duration : 1 h 28 min

Bit rate : 1 193 kb/s

Width : 720 pixels

Height : 404 pixels

Display aspect ratio : 16:9

Frame rate mode : Constant

Frame rate : 29.970 (30000/1001) FPS

Color space : YUV

Chroma subsampling : 4:2:0

Bit depth : 8 bits

Scan type : Progressive

Bits/(Pixel*Frame) : 0.137

Stream size : 757 MiB (83%)


Audio

ID : 2

Format : AAC

Format/Info : Advanced Audio Codec

Format profile : LC

Codec ID : mp4a-40-2

Duration : 1 h 28 min

Bit rate mode : Constant

Bit rate : 236 kb/s

Channel(s) : 2 channels

Channel(s)_Original : 6 channels

Channel positions : Front: L C R, Side: L R, LFE

Sampling rate : 44.1 kHz

Frame rate : 43.066 FPS (1024 SPF)

Compression mode : Lossy

Stream size : 150 MiB (16%)

Default : Yes

Alternate group : 1


Torrent location

http://www.1337x.to/torrent/2997335/Curvature-2018-Mp-4-Dvd-Rip-daScubaDude/

Trackers

Refresh Leechers : Updated May 16, 2018

1. udp://9.rarbg.com:2710/announce

2. udp://tracker.opentrackr.org:1337/announce

3. udp://tracker.pirateparty.gr:6969/announce

4. udp://tracker.leechers-paradise.org:6969/announce

5. udp://tracker.coppersurfer.tk:6969/announce

6. udp://tracker.zer0day.to:1337/announce

Comments

You must log in to add a comment.

Embed Code

Sharing Widget

Top Movies ( auto generated report )

FILENAME SIZE SEEDS PEERS ADDED UPD
[i] Pacific Rim Uprising (2018) [WEBRip] [1080p] [YTS AM] 1.77 GB 10718 5076 4 days 3 days
[i] Pacific Rim Uprising (2018) [WEBRip] [720p] [YTS AM] 943.67 MB 8884 5108 4 days 3 days
[i] Fahrenheit 451 (2018) [WEBRip] [720p] [YTS AM] 864.37 MB 2326 1309 19 hours 17 hours
[i] Dark Crimes (2016) [WEBRip] [720p] [YTS AM] 793.49 MB 2029 1190 3 days 2 days
[i] Girl Lost (2018) [WEBRip] [720p] [YTS AM] 806.4 MB 1869 1102 2 days 1 day
[i] Fahrenheit 451 (2018) [WEBRip] [1080p] [YTS AM] 1.62 GB 1686 908 19 hours 17 hours
[i] Dark Crimes (2016) [WEBRip] [1080p] [YTS AM] 1.49 GB 1647 730 3 days 2 days
[i] I Kill Giants (2017) [BluRay] [1080p] [YTS AM] 1.71 GB 1385 457 4 days 3 days
[i] I Kill Giants (2017) [BluRay] [720p] [YTS AM] 919.41 MB 1379 567 4 days 3 days
[i] Girl Lost (2018) [WEBRip] [1080p] [YTS AM] 1.52 GB 1322 591 2 days 1 day