Stratton(2018)Mp-4 Dvd Rip[DaScubaDude]

DOWNLOAD ( MAGNET LINK ) DOWNLOAD Watch Online

Posted on May 16, 2018 in Movies » Misc

Size: 983.5 MB , Seeds: 0 , Peers: 0 ( Updated May 16, 2018 - Refresh )

Could not find any peer statistics from any torrent tracker.
This does not mean the torrent is dead.

* Download via Magnet Link , * To download files you need a Bittorrent Client , * How to download torrents from Bit Torrent Scene?

Scrape History ( seeds + peers )

Internal Files

Stratton(2018)Mp-4 Dvd Rip[DaScubaDude]
screenshot785.jpg   29.5 KB

screenshot786.jpg   29.7 KB

screenshot781.jpg   39.1 KB

screenshot784.jpg   51.0 KB

Read me.rtf   1.3 MB

STRATTON_Title2.mp4   982.1 MB

Hash Code

1ed964e5b2f707d2994b8b7aee94e6c918ac6f24

Description

SCREENSHOT
[youtube]GgQNPTif_U4[/youtube]

Stratton
R | 1h 35min | Action, Thriller | 5 January 2018 (USA)


General

Complete name : Stratton\STRATTON_Title2.mp4

Format : MPEG-4

Format profile : Base Media

Codec ID : isom (isom/iso2/avc1/mp41)

File size : 982 MiB

Duration : 1 h 34 min

Overall bit rate : 1 454 kb/s

Movie name : STRATTON_Title2

Writing application : Lavf54.6.100


Video

ID : 1

Format : AVC

Format/Info : Advanced Video Codec

Format profile : [email protected]
Format settings : 6 Ref Frames

Format settings, CABAC : No

Format settings, RefFrames : 6 frames

Format settings, GOP : M=1, N=60

Codec ID : avc1

Codec ID/Info : Advanced Video Coding

Duration : 1 h 34 min

Bit rate : 1 196 kb/s

Width : 720 pixels

Height : 404 pixels

Display aspect ratio : 16:9

Frame rate mode : Constant

Frame rate : 29.970 (30000/1001) FPS

Color space : YUV

Chroma subsampling : 4:2:0

Bit depth : 8 bits

Scan type : Progressive

Bits/(Pixel*Frame) : 0.137

Stream size : 808 MiB (82%)


Audio

ID : 2

Format : AAC

Format/Info : Advanced Audio Codec

Format profile : LC

Codec ID : mp4a-40-2

Duration : 1 h 34 min

Bit rate mode : Constant

Bit rate : 252 kb/s

Channel(s) : 2 channels

Channel(s)_Original : 6 channels

Channel positions : Front: L C R, Side: L R, LFE

Sampling rate : 44.1 kHz

Frame rate : 43.066 FPS (1024 SPF)

Compression mode : Lossy

Stream size : 170 MiB (17%)

Default : Yes

Alternate group : 1


Torrent location

http://www.1337x.to/torrent/2997399/Stratton-2018-Mp-4-Dvd-Rip-DaScubaDude/

Trackers

Refresh Leechers : Updated May 16, 2018

1. udp://9.rarbg.com:2710/announce

2. udp://tracker.opentrackr.org:1337/announce

3. udp://tracker.pirateparty.gr:6969/announce

4. udp://tracker.leechers-paradise.org:6969/announce

5. udp://tracker.coppersurfer.tk:6969/announce

6. udp://tracker.zer0day.to:1337/announce

Comments

You must log in to add a comment.

Embed Code

Sharing Widget

Top Movies ( auto generated report )

FILENAME SIZE SEEDS PEERS ADDED UPD
[i] Death Wish (2018) [WEBRip] [720p] [YTS AM] 905.39 MB 4965 4213 21 hours 19 hours
[i] Death Wish (2018) [WEBRip] [1080p] [YTS AM] 1.7 GB 4044 2992 21 hours 19 hours
[i] Gringo (2018) [WEBRip] [720p] [YTS AM] 940.05 MB 2909 2691 21 hours 19 hours
[i] Gringo (2018) [WEBRip] [1080p] [YTS AM] 1.77 GB 2256 1329 21 hours 19 hours
[i] Fahrenheit 451 (2018) [WEBRip] [720p] [YTS AM] 864.37 MB 2206 1124 2 days 1 day
[i] The Strangers Prey at Night (2018) [WEBRip] [720p] [YTS AM] 724.75 MB 2042 1722 21 hours 19 hours
[i] Girl Lost (2018) [WEBRip] [720p] [YTS AM] 806.4 MB 1869 1102 4 days 3 days
[i] Black Water (2018) [WEBRip] [720p] [YTS AM] 897.63 MB 2017 2766 21 hours 19 hours
[i] Fahrenheit 451 (2018) [WEBRip] [1080p] [YTS AM] 1.62 GB 1676 713 2 days 1 day
[i] The Strangers Prey at Night (2018) [WEBRip] [1080p] [YTS AM] 1.37 GB 1539 1026 21 hours 19 hours